#TITLE:Last Farewell;
#SUBTITLE:;
#ARTIST:Big Bang;
#TITLETRANSLIT:Last Farewell;
#SUBTITLETRANSLIT:;
#ARTISTTRANSLIT:Big Bang;
#CREDIT:Thu Nam , 29-1-2009;
#BANNER:Last Farewell-bn.png;
#BACKGROUND:Last Farewell-bg.png;
#LYRICSPATH:;
#CDTITLE:pm4cd.png;
#MUSIC:Last Farewell.mp3;
#OFFSET:-0.200;
#SAMPLESTART:85.020;
#SAMPLELENGTH:20.000;
#SELECTABLE:YES;
#BPMS:0.000=135.010;
#STOPS:;
#BGCHANGES:;
// cache tags:
#FIRSTBEAT:0.000;
#LASTBEAT:516.000;
#SONGFILENAME:Songs/Music V.I.P ^_^/Last Farewell/Last Farewell.sm;
#HASMUSIC:1;
#HASBANNER:1;
#MUSICLENGTH:231.894;
// end cache tags

//---------------dance-single - ----------------
#NOTES:
     dance-single:
     :
     Hard:
     15:
     0.830,1.000,0.953,0.267,0.489,1058.000,221.000,62.000,0.000,192.000:
1100
0011
0110
1001
,
0110
1100
0110
0011
,
0101
1010
1100
0011
,
0110
1010
0110
1001
,
1100
0011
0110
1010
,
0101
0110
1010
1001
,
1100
0110
1010
0011
,
0011
0010
0110
0100
1100
1000
1001
0001
,
0101
1000
1010
0100
0110
0010
1001
0001
,
0110
0001
0011
0100
1100
0010
1010
1000
,
0110
1000
0011
0001
1100
0100
1001
0010
,
1100
0001
0011
1000
0011
0010
1100
0100
,
0101
0000
0010
0000
1010
0000
0100
0000
1001
0001
0001
0001
1001
0001
0001
0001
,
1010
0000
0100
0000
0101
0000
0010
0000
1001
1000
1000
1000
1001
1000
1000
1000
,
0101
0000
0010
0000
1010
0000
0100
0000
1001
0001
0001
0001
1001
0001
0001
0001
,
1022
1000
1000
1000
1000
1000
1000
1000
1000
1000
1000
1000
1000
1000
1000
1000
1000
1000
1000
1000
1000
1000
1000
1000
1000
1000
1000
1000
1000
1000
1033
0000
,
0100
0010
1100
0001
0010
0100
0011
1000
,
2100
0010
0001
0010
0100
0010
0001
0010
,
3100
0010
1001
0100
0001
0010
0110
1000
,
0012
0100
1000
0100
0010
0100
1000
0100
,
0013
0100
1001
0010
0100
1000
0011
0100
,
0210
1000
0010
0001
0010
1000
0010
0001
,
0310
0001
1100
0001
0100
1000
0011
0100
,
0120
0001
0100
1000
0100
0001
0100
1000
,
0130
0010
1010
0001
0100
1000
0101
0010
,
2001
0010
0100
0010
0001
0010
0100
0010
,
3001
0010
1100
0001
0010
1000
0101
0001
,
0012
0100
1000
0100
0010
0100
1000
0100
,
0013
0100
0110
1000
0100
0001
0011
0100
,
0201
0010
1000
0010
0001
0010
1000
0010
,
0301
0010
1100
0010
0001
0100
0011
1000
,
0120
0001
0100
1000
0100
0001
0100
1000
,
2030
0010
0010
0010
,
3201
0001
0001
0001
,
1320
1000
1000
1000
,
0132
0100
0100
0100
,
2013
0011
0010
0011
,
3201
1001
0001
1001
,
1320
1100
1000
1100
,
1132
0110
1100
0110
,
0103
0010
0100
1000
0010
0100
0001
0010
0100
0001
0010
1000
0101
0000
0000
0000
,
0001
0010
0001
0010
0100
1000
0100
0010
0100
0010
0001
1000
0110
0000
0000
0000
,
0100
0001
0010
0100
0010
1000
0100
0001
0010
0100
0001
0010
1100
0000
0000
0000
,
0010
1000
0100
0001
0010
0100
0010
1000
0010
0001
0010
1000
0011
0000
0000
0000
,
0001
0010
0100
0010
1000
0100
0001
0010
0100
0001
0010
0100
1010
0000
0000
0000
,
0001
0100
0010
1000
0100
0010
0100
0001
0010
0100
0001
1000
0110
0000
0000
0000
,
0100
0010
1000
0100
0010
0001
0010
0001
0100
0010
1000
0001
1010
0000
0000
0000
,
2201
0001
0001
0001
0001
0001
0001
0001
0001
0001
0001
0001
0001
0001
0001
0001
0001
0001
0001
0001
0001
0001
0001
0001
0001
0001
0001
0001
0001
0001
3301
0000
,
0100
0010
1100
0001
0010
0100
0011
1000
,
2100
0010
0001
0010
0100
0010
0001
0010
,
3100
0010
1001
0100
1000
0010
0101
1000
,
0012
0100
1000
0100
0010
0100
1000
0100
,
0013
0100
1001
0010
0100
1000
0011
0100
,
0210
1000
0010
0001
0010
1000
0010
0001
,
0310
0001
1100
1000
0100
0010
0101
0010
,
0120
0001
0100
1000
0100
0001
0100
1000
,
0130
0010
1010
0001
0100
0010
0101
0010
,
2001
0010
0100
0010
0001
0010
0100
0010
,
3001
0010
1100
0001
0010
1000
0101
0001
,
0012
0100
1000
0100
0010
0100
1000
0100
,
0013
0100
0110
1000
0100
0001
0011
0100
,
0201
0010
1000
0010
0001
0010
1000
0010
,
0301
0010
1100
0010
0001
0100
0011
1000
,
0120
0001
0100
1000
0100
0001
0100
1000
,
2030
0100
0100
0100
,
3021
0001
0001
0001
,
1230
1000
1000
1000
,
2310
0010
0010
0010
,
3201
1010
1000
1010
,
1320
1100
0100
1100
,
1032
0100
1000
0100
1000
0100
1000
0100
1000
0100
1000
0100
1000
0100
1000
0100
,
2213
0010
0010
0010
0010
0010
0010
0010
0010
0010
0010
0010
0010
0010
0010
0010
0010
0010
0010
0010
0010
0010
0010
0010
0010
0010
0010
0010
0010
0010
3310
0000
,
0001
0010
1000
0001
0010
0100
0010
0100
1000
0001
0010
0001
0110
0000
0000
0100
,
1000
0100
0010
0001
0010
0100
0010
0001
0100
0010
0001
0010
1100
0000
0000
0000
,
0001
1000
0010
0100
0001
0010
0100
1000
0100
0010
0001
0010
1100
0000
0001
0100
,
1000
0010
0100
0001
0010
0100
0010
1000
0100
0001
0100
1000
0101
0000
0000
0000
,
1000
0100
0010
0001
0100
0010
0001
1000
0100
0001
1000
0010
1001
0100
1000
0000
,
0000
0000
0001
0010
0100
0010
0100
0001
0010
0100
0010
0001
1010
0100
1000
0000
,
0000
0000
0010
0100
0001
1000
0010
0001
0100
1000
0010
0100
0101
0000
0000
0000
,
0122
0100
0100
0100
0100
0100
0100
0100
0100
0100
0100
0100
0100
0100
0100
0100
0100
0100
0100
0100
0100
0100
0100
0100
0100
0100
0100
0100
0100
0100
0133
0000
,
1000
0010
1100
0001
0010
0100
0011
1000
,
2100
0010
0001
0010
0100
0010
0001
0010
,
3100
0010
1001
0100
1000
0010
0101
1000
,
0012
0100
1000
0100
0010
0100
1000
0100
,
0013
0100
1001
0010
0100
1000
0011
0100
,
0210
1000
0010
0001
0010
1000
0010
0001
,
0310
0001
1100
1000
0100
0010
0101
0010
,
0120
0001
0100
1000
0100
0001
0100
1000
,
0130
0010
1010
0001
0100
0010
0101
0010
,
2001
0010
0100
0010
0001
0010
0100
0010
,
3001
0010
1100
0001
0010
1000
0101
0001
,
0012
0100
1000
0100
0010
0100
1000
0100
,
0013
0100
0110
1000
0100
0001
0011
0100
,
0201
0010
1000
0010
0001
0010
1000
0010
,
0301
0010
1100
0010
0001
0100
0011
1000
,
0120
0001
0100
1000
0100
0001
0100
1000
,
2030
0000
0000
0000
,
3200
0000
0000
0000
,
0320
0000
0000
0000
,
0132
0100
0100
0100
,
2103
0000
0000
0000
,
3200
0000
0000
0000
,
0320
0000
0000
0000
,
0132
0100
0100
0100
,
1003
0000
0000
0000
,
0100
0000
0000
0000
,
0010
0000
0000
0000
,
0001
0000
0000
0000
,
0010
0000
0000
0000
,
0100
0000
0000
0000
,
1000
0000
0000
0000
1001
0001
0001
0001
1001
0001
0001
0001
1001
0001
0001
0001
,
1022
1000
1000
1000
1000
1000
1000
1000
1000
1000
1000
1000
1000
1000
1000
1000
1000
1000
1000
1000
1000
1000
1000
1000
1000
1000
1000
1000
1000
1000
1033
0000
,
0100
0010
0101
1000
0100
0010
0011
1000
,
0102
0010
1100
0010
1000
0100
1010
0100
,
0013
1000
0110
0100
0001
0010
1001
0010
,
1200
0001
0011
0010
1000
0001
0011
1000
,
0301
0010
0110
0001
1000
0100
0011
1000
,
1020
0100
1001
0100
0001
1000
1100
0001
,
0130
1000
0110
0001
0010
1000
0101
0010
,
2100
0001
0110
0100
0001
0010
0101
0010
,
3100
0010
1100
0001
0010
0100
0011
1000
,
0100
0010
1100
0001
0100
1000
0101
0010
,
0001
0100
0011
0100
1000
0010
1100
0001
,
0010
0001
1100
0001
0010
1000
0101
0010
,
0010
0100
1001
0010
0100
1000
0011
0100
,
0010
0001
1100
0010
0100
0001
0011
0100
,
0001
0010
1100
0010
0100
1000
0011
0100
,
0101
1100
0110
0011
,
2000
0000
0000
0000
,
3000
0000
0000
0000
;
